Сериалы для iPod, iPhone, iPad | フルバージョン9 | Apex Launcher

Containment S01E09 HDTV x264-LOL[msu]

seeders: 1
leechers: 7
updated:
Added by MdSaffatUllah5585 in TV
Torrent verified. Downloaded 178 times.

DownloadFast Safe Anonymous
movies, software, shows...
  • View all Containment episodes
  • Episode title: A Kingdom Divided Against Itself
  • Episode: S01E09
  • Air date: 21 June 2016
  • IMDb link: 4421578
  • TVmaze link: Containment
  • Original run: 01 January 2016 — Present
  • Summary:

    The series follows an epidemic that breaks out in Atlanta, leaving the large city quarantined and those stuck on the inside fighting for their lives. The drama tells the story of loved ones torn apart, and how the society that grows inside the cordon reveals both the devolution of humanity and the birth of unlikely heroes.

    Written by Rocky_45122.33K
Available in versions: 1080p720p480pHDTVWEBRipx264x265
Containment S01E09 HDTV x264-LOL[msu] (Size: 104.76 MB)
  Containment S01E09 HDTV x264-LOL[msu].mp4 104.76 MB

Description

Please seed the torrent


Screenshots:

imageimageimageimageimage


General
Format : MPEG-4
Format profile : Base Media
Codec ID : isom (isom/iso2/avc1/mp41)
File size : 105 MiB
Duration : 42mn 31s
Overall bit rate : 344 Kbps
Writing application : Lavf56.19.100

Video
ID : 1
Format : AVC
Format/Info : Advanced Video Codec
Format profile : [email protected]
Format settings, CABAC : Yes
Format settings, ReFrames : 4 frames
Codec ID : avc1
Codec ID/Info : Advanced Video Coding
Duration : 42mn 31s
Bit rate : 242 Kbps
Width : 576 pixels
Height : 324 pixels
Display aspect ratio : 16:9
Original display aspect ratio : 16:9
Frame rate mode : Constant
Frame rate : 23.976 (24000/1001) fps
Color space : YUV
Chroma subsampling : 4:2:0
Bit depth : 8 bits
Scan type : Progressive
Bits/(Pixel*Frame) : 0.054
Stream size : 73.7 MiB (70%)
Writing library : x264 core 144 r96 40bb568
Encoding settings : cabac=1 / ref=1 / deblock=1:0:0 / analyse=0x3:0x113 / me=hex / subme=2 / psy=1 / psy_rd=1.00:0.00 / mixed_ref=0 / me_range=16 / chroma_me=1 / trellis=0 / 8x8dct=1 / cqm=0 / deadzone=21,11 / fast_pskip=1 / chroma_qp_offset=0 / threads=12 / lookahead_threads=2 / sliced_threads=0 / nr=0 / decimate=1 / interlaced=0 / bluray_compat=0 / constrained_intra=0 / bframes=3 / b_pyramid=2 / b_adapt=1 / b_bias=0 / direct=1 / weightb=1 / open_gop=0 / weightp=1 / keyint=50 / keyint_min=5 / scenecut=40 / intra_refresh=0 / rc_lookahead=10 / rc=crf / mbtree=1 / crf=25.0 / qcomp=0.60 / qpmin=0 / qpmax=69 / qpstep=4 / ip_ratio=1.40 / aq=1:1.00

Audio
ID : 2
Format : AAC
Format/Info : Advanced Audio Codec
Format profile : LC
Codec ID : 40
Duration : 42mn 31s
Duration_LastFrame : -18ms
Bit rate mode : Constant
Bit rate : 96.0 Kbps
Channel(s) : 2 channels
Channel positions : Front: L R
Sampling rate : 44.1 KHz
Frame rate : 43.066 fps (1024 spf)
Compression mode : Lossy
Stream size : 29.2 MiB (28%)
Default : Yes
Alternate group : 1

Related Torrents

torrent name size files age seed leech

Sharing Widget


Download torrent
104.76 MB
seeders:2
leechers:4
Containment S01E09 HDTV x264-LOL[msu]



To share this torrent use the code below and insert it into comments, status messages, forum posts or your signature.

Torrent: Containment S01E09 HDTV x264-LOL[msu]

Trackers

tracker name
udp://tracker.openbittorrent.com:80/announce
udp://tracker.coppersurfer.tk:6969/announce
udp://p4p.arenabg.com:1337/announce
udp://tracker.opentrackr.org:1337/announce
µTorrent compatible trackers list

Locations

name
KickassTorrents
Torrent hash: B888B3FFCFA84C433097AD30B563B0B23E92ED0A

All Comments

audio
0/10
video
0/10
please, leave only comments related to that torrent
Sign In


User Opinions

COOL685181, SMorgan3947, KarenMichelle3787, bundunk3568, missdissy2987, ashikls2573, Puddles1692529, Miirage652
Report a bug Open chat