Artikel De Sims 4 detecteert piraterij en maakt spelen onmogelijkLees meer | Day of the D (2018) | Jack Goddard

escape to victory (1981) DVD-rip by kuz

seeders: 0
leechers: 0
updated:
Added in Movies
Downloaded 56 times.

DownloadFast Safe Anonymous
movies, software, shows...
escape to victory (1981) DVD-rip by kuz (Size: 692.07 MB)
  escape to victory (1981).avi 692.07 MB

Description



Victory (1981) More at IMDbPro »

Photos (see all 11 | slideshow)

advertisement

Overview

User Rating:

6.1/10 6,287 votes

Director:

John Huston

Writers:

Yabo Yablonsky (story) and

Djordje Milicevic (story) ...

more

Release Date:

30 July 1981 (USA) more

Genre:

Action | Sport | War more

Tagline:

Their goal was freedom... more

Plot:

As allied POWs prepare for a soccer game against the German National Team to be played in Nazi-occupied Paris, the French Resistance and British officers are making plans for the team's escape. full summary | add synopsis

Plot Keywords:

Goal Keeper | Escape | Intrigue | Prison | Soccer

more

Awards:

1 nomination more

User Comments:

Once again, you can't trust the critics. more

Cast

(Cast overview, first billed only)



Sylvester Stallone ... Captain Robert Hatch



Michael Caine ... Capt. John Colby - The Players: England

Pelé ... Cpl. Luis Fernandez - Allied Soccer Player - The Players: Trinidad

Bobby Moore ... Terry Brady - Allied Soccer Player - The Players: England

Osvaldo Ardiles ... Carlos Rey - Allied Soccer Player - The Players: Argentina

Paul Van Himst ... Michel Fileu - The Players: Belgium

Kazimierz Deyna ... Paul Wolchek - The Players: Poland

Hallvar Thoresen ... Gunnar Hilsson - The Players: Norway

Mike Summerbee ... Sid Harmor - Allied Soccer Player - The Players: England

Co Prins ... Pieter Van Beck - The Players: Holland

Russell Osman ... Doug Clure - The Players

John Wark ... Arthur Hayes - The Players: Scotland

Søren Lindsted ... Erik Ball - Allied Soccer Player - The Players: Denmark

Kevin O'Callaghan ... Tony Lewis - Allied Goalkeeper - The Players: Ireland



Max von Sydow ... Major Karl Von Steiner - The Germans (as Max Von Sydow)

more



Also Known As:

Escape to Victory (UK)

more

Parents Guide:

Add content advisory for parents

Runtime:

116 min

Country:

USA

Language:

English

Color:

Color (Metrocolor)

Aspect Ratio:

2.35 : 1 more

Sound Mix:

Dolby

Certification:

UK:A (original rating) | UK:PG (video rating) (1987) | Iceland:L | West Germany:6 (f) | Sweden:15 | Finland:K-12 | Norway:12 | USA:PG | Singapore:PG

Filming Locations:

Budapest, Hungary

Related Torrents

torrent name size files age seed leech

Sharing Widget


Download torrent
692.07 MB
seeders:0
leechers:0
escape to victory (1981) DVD-rip by kuz



To share this torrent use the code below and insert it into comments, status messages, forum posts or your signature.

Torrent: escape to victory (1981) DVD-rip by kuz

Trackers

tracker name
http://tracker.openbittorrent.com/announce
µTorrent compatible trackers list

Locations

name
Mininova
Torrent hash: ccd5b2b158f2e336684f520c8cdd634cbc0e2ab1

All Comments

audio
8/10
video
8/10
please, leave only comments related to that torrent
Sign In

audio: 8video: 5
Not good as "Escape To Victory 1981 BluRay 720p AsOri (AtlaN64)" torrent. Low video quality & Slower Download Speed. Instead of this torrent download "Escape To Victory 1981 BluRay 720p AsOri (AtlaN64)" torrent MEDIA INFO REPORT: General Complete name : escape to victory (1981).avi Format : AVI Format/Info : Audio Video Interleave File size : 692 MiB Duration : 1h 56mn Overall bit rate mode : Variable Overall bit rate : 828 Kbps Writing application : Nandub v0.27 Writing library : Nandub build 1718/release Video ID : 0 Format : MPEG-4 Visual Codec ID : DIV3 Codec ID/Hint : DivX 3 Low Duration : 1h 56mn Bit rate : 667 Kbps Width : 640 pixels Height : 272 pixels Display aspect ratio : 2.35:1 Frame rate : 23.976 fps Color space : YUV Chroma subsampling : 4:2:0 Bit depth : 8 bits Compression mode : Lossy Bits/(Pixel*Frame) : 0.160 Stream size : 557 MiB (81%) Audio ID : 1 Format : MPEG Audio Format version : Version 1 Format profile : Layer 3 Mode : Joint stereo Mode extension : MS Stereo Codec ID : 55 Codec ID/Hint : MP3 Duration : 1h 56mn Bit rate mode : Variable Bit rate : 149 Kbps Channel(s) : 2 channels Sampling rate : 44.1 KHz Compression mode : Lossy Stream size : 125 MiB (18%) Alignment : Aligned on interleaves Interleave, duration : 26 ms (0.63 video frame) Interleave, preload duration : 119 ms
One of my favorite movies! This film deserves a blue ray! Not just a dvd... :( Thanks uploader.
audio: 8video: 8
Thanks
audio: 9video: 9
good video and audio many thanks
audio: 7video: 5
Poor picture quality.
audio: 9video: 9
good movie must watch.
Show More All

User Opinions

Slimoo14.36K, little D10.5K, Naskal6720, hammyburger4808, morfys2620, essar13580, dasilva71230, sligo565164, Ship00791, sheepdogs6 ... And 61 more
hardhad555, Glorious.Izmir7
Report a bug Open chat